琵琶行论坛

 找回密码
 注册
每日签到论坛FTP使用教学领取红包(开放!)论坛FTP搜索引擎
查看: 2139|回复: 28

灌篮高手(全-101集-408.17GB) [BD-Remux 1080p]

[复制链接]

签到天数: 81 天

[LV.6]常住居民II

发表于 2020-8-4 08:30:38 | 显示全部楼层 |阅读模式
本帖最后由 caesarkof 于 2020-8-4 08:33 编辑

前一阵帮朋友下了一套新出的西班牙BD版-灌篮高手,在BT搜索引擎上找到的种子,全-101集-408.17GB,BD-Remux 1080p,DTS-HD。

这个版本虽然比日版蓝光小了118G,日版是526.6G,可是没有速度,挂了半年也没下完),但此版已够收藏。

资 源 详 情 :

0.png

下载速度不错,迅雷和qbittorrent都可以到3-6M/秒左右。

画面效果很好,每集大小在4G左右,1080分辨率,比特率是22m/秒左右,音频:西班牙语,加泰罗尼亚语,日本语,软字幕:西班牙文,加泰罗尼亚文。

3.png

2.png

4.png


5.png

6.png

详细信息:

Format                         : Matroska
Format version                 : Version 4
File size                      : 4.45 GiB
Duration                       : 22 min 51 s
Overall bit rate mode          : Variable
Overall bit rate               : 27.9 Mb/s
Encoded date                   : UTC 2017-07-04 08:42:53
Writing application            : mkvmerge v13.0.0 ('The Juggler') 64bit
Writing library                : libebml v1.3.4 + libmatroska v1.4.5

Video
ID                             : 1
Format                         : AVC
Format/Info                    : Advanced Video Codec
Format profile                 : High@L4.1
Format settings                : CABAC / 4 Ref Frames
Format settings, CABAC         : Yes
Format settings, Reference fra : 4 frames
Codec ID                       : V_MPEG4/ISO/AVC
Duration                       : 22 min 51 s
Bit rate mode                  : Variable
Bit rate                       : 22.7 Mb/s
Maximum bit rate               : 35.0 Mb/s
Width                          : 1 920 pixels
Height                         : 1 080 pixels
Display aspect ratio           : 16:9
Frame rate mode                : Constant
Frame rate                     : 23.976 (24000/1001) FPS
Standard                       : NTSC
Color space                    : YUV
Chroma subsampling             : 4:2:0
Bit depth                      : 8 bits
Scan type                      : Progressive
Bits/(Pixel*Frame)             : 0.456
Stream size                    : 3.62 GiB (81%)
Default                        : Yes
Forced                         : No
Color range                    : Limited
Color primaries                : BT.709
Transfer characteristics       : BT.709
Matrix coefficients            : BT.709

Audio #1
ID                             : 2
Format                         : DTS XLL
Format/Info                    : Digital Theater Systems
Commercial name                : DTS-HD Master Audio
Codec ID                       : A_DTS
Duration                       : 22 min 51 s
Bit rate mode                  : Variable
Bit rate                       : 1 795 kb/s
Channel(s)                     : 2 channels
Channel layout                 : L R
Sampling rate                  : 48.0 kHz
Frame rate                     : 93.750 FPS (512 SPF)
Bit depth                      : 16 bits
Compression mode               : Lossless
Stream size                    : 293 MiB (6%)
Language                       : Spanish
Default                        : No
Forced                         : No

Audio #2
ID                             : 3
Format                         : DTS XLL
Format/Info                    : Digital Theater Systems
Commercial name                : DTS-HD Master Audio
Codec ID                       : A_DTS
Duration                       : 22 min 51 s
Bit rate mode                  : Variable
Bit rate                       : 1 677 kb/s
Channel(s)                     : 2 channels
Channel layout                 : L R
Sampling rate                  : 48.0 kHz
Frame rate                     : 93.750 FPS (512 SPF)
Bit depth                      : 16 bits
Compression mode               : Lossless
Stream size                    : 274 MiB (6%)
Language                       : Catalan
Default                        : Yes
Forced                         : No

Audio #3
ID                             : 4
Format                         : DTS XLL
Format/Info                    : Digital Theater Systems
Commercial name                : DTS-HD Master Audio
Codec ID                       : A_DTS
Duration                       : 22 min 51 s
Bit rate mode                  : Variable
Bit rate                       : 1 735 kb/s
Channel(s)                     : 2 channels
Channel layout                 : L R
Sampling rate                  : 48.0 kHz
Frame rate                     : 93.750 FPS (512 SPF)
Bit depth                      : 16 bits
Compression mode               : Lossless
Stream size                    : 284 MiB (6%)
Language                       : Japanese
Default                        : No
Forced                         : No

Text #1
ID                             : 5
Format                         : PGS
Muxing mode                    : zlib
Codec ID                       : S_HDMV/PGS
Codec ID/Info                  : Picture based subtitle format used on BDs/HD-DVDs
Duration                       : 22 min 29 s
Bit rate                       : 5 516 b/s
Count of elements              : 80
Stream size                    : 909 KiB (0%)
Language                       : Spanish
Default                        : Yes
Forced                         : No

Text #2
ID                             : 6
Format                         : PGS
Muxing mode                    : zlib
Codec ID                       : S_HDMV/PGS
Codec ID/Info                  : Picture based subtitle format used on BDs/HD-DVDs
Duration                       : 18 min 59 s
Bit rate                       : 3 146 b/s
Count of elements              : 44
Stream size                    : 438 KiB (0%)
Language                       : Spanish
Default                        : No
Forced                         : No

Text #3
ID                             : 7
Format                         : PGS
Muxing mode                    : zlib
Codec ID                       : S_HDMV/PGS
Codec ID/Info                  : Picture based subtitle format used on BDs/HD-DVDs
Duration                       : 22 min 29 s
Bit rate                       : 40.2 kb/s
Count of elements              : 629
Stream size                    : 6.47 MiB (0%)
Language                       : Spanish
Default                        : No
Forced                         : No

种子文件

Slam Dunk 101-101 [BD-Remux 1080p][DTS-HD MASTER CAT.ESP.JAP][ Subs].torrent (2 MB, 下载次数: 30)

评分

2

查看全部评分

签到天数: 121 天

[LV.7]常住居民III

发表于 2020-8-4 10:17:08 | 显示全部楼层
台配才是灵魂
回复 支持 1 反对 0

使用道具 举报

签到天数: 54 天

[LV.5]常住居民I

发表于 2020-8-4 08:48:57 | 显示全部楼层
满满的回忆,好东西,不下也要顶!
回复 支持 反对

使用道具 举报

签到天数: 87 天

[LV.6]常住居民II

发表于 2020-8-4 08:58:07 | 显示全部楼层
去掉多余的音频可以节省不少空间...
已经存了一套日版的了,画质也没多大差别.
回复 支持 反对

使用道具 举报

签到天数: 57 天

[LV.5]常住居民I

发表于 2020-8-4 09:14:12 | 显示全部楼层
这个,容量实在太大

回复 支持 反对

使用道具 举报

签到天数: 167 天

[LV.7]常住居民III

发表于 2020-8-4 10:32:41 | 显示全部楼层
太大了承受不了
回复 支持 反对

使用道具 举报

签到天数: 85 天

[LV.6]常住居民II

发表于 2020-8-4 10:37:18 | 显示全部楼层
感谢分享
回复

使用道具 举报

签到天数: 77 天

[LV.6]常住居民II

发表于 2020-8-4 11:13:05 | 显示全部楼层
感謝分享!
回复

使用道具 举报

该用户从未签到

发表于 2020-8-4 11:22:08 | 显示全部楼层
感谢分享
回复

使用道具 举报

签到天数: 3 天

[LV.2]偶尔看看I

发表于 2020-8-4 12:52:09 | 显示全部楼层
感谢楼主分享
回复 支持 反对

使用道具 举报

签到天数: 420 天

[LV.9]以坛为家II

发表于 2020-8-4 15:10:19 | 显示全部楼层
硬盘没地了,好大大大大大大大大大大大大大大大大大大大大大大((((((((((((
回复 支持 反对

使用道具 举报

签到天数: 288 天

[LV.8]以坛为家I

发表于 2020-8-4 16:15:58 | 显示全部楼层
硬盘实在不够用
回复 支持 反对

使用道具 举报

您需要登录后才可以回帖 登录 | 注册

本版积分规则

小黑屋|手机版|Archiver|琵琶行论坛 ( 赣ICP备12000882号 )

GMT+8, 2020-9-25 00:41 , Processed in 0.021107 second(s), 10 queries , Gzip On, MemCached On.

Powered by Discuz! X3.4

Copyright © 2001-2020, Tencent Cloud.

快速回复 返回顶部 返回列表