琵琶行论坛

 找回密码
 注册
每日签到论坛FTP使用教学领取红包(开放!)论坛FTP搜索引擎
楼主: wsm2003

[原创]PCE-CD 恶魔城X 血之轮回/Akumajou_Dracula_X Chi_no_Rinne Hack

[复制链接]

签到天数: 148 天

[LV.7]常住居民III

 楼主| 发表于 2019-12-8 19:39:00 | 显示全部楼层
安德烈斯 发表于 2019-12-8 19:35
大大你有
iso版的嗎
我要怎把bin檔轉回檔轉回去iso

没有,不支持cue吗? 除了ISO还支持什么格式?
回复 支持 反对

使用道具 举报

签到天数: 15 天

[LV.4]偶尔看看III

发表于 2019-12-8 19:54:40 | 显示全部楼层
wsm2003 发表于 2019-12-8 19:39
没有,不支持cue吗? 除了ISO还支持什么格式?

不支援bin

cue  支援

剛把 bin 反轉回去 iso 一樣不能玩

回复 支持 反对

使用道具 举报

签到天数: 148 天

[LV.7]常住居民III

 楼主| 发表于 2019-12-8 20:01:17 | 显示全部楼层
本帖最后由 wsm2003 于 2019-12-8 20:03 编辑
安德烈斯 发表于 2019-12-8 19:54
不支援bin

cue  支援

本身就是必须读取CUE的,支援的话还折腾啥!   PC上也一样,不管是模拟器还是DAEAON都是读取CUE文件才行!
回复 支持 反对

使用道具 举报

签到天数: 15 天

[LV.4]偶尔看看III

发表于 2019-12-8 20:18:34 | 显示全部楼层
wsm2003 发表于 2019-12-8 20:01
本身就是必须读取CUE的,支援的话还折腾啥!   PC上也一样,不管是模拟器还是DAEAON都是读取CUE文件才行! ...

因為原本沒改過的遊戲
是支援的
但原本是iso 配cue

wsm2003大大的 bin就沒辦法執行




可惡好想在psv上用啊....



回复 支持 反对

使用道具 举报

签到天数: 148 天

[LV.7]常住居民III

 楼主| 发表于 2019-12-8 21:19:27 | 显示全部楼层
本帖最后由 wsm2003 于 2019-12-8 21:21 编辑
安德烈斯 发表于 2019-12-8 20:18
因為原本沒改過的遊戲
是支援的
但原本是iso 配cue

我这个是 cue+bin,直接读取cue,应该没问题!出错有什么提示? 对了你没有改文件名吧?
回复 支持 反对

使用道具 举报

签到天数: 15 天

[LV.4]偶尔看看III

发表于 2019-12-8 22:15:53 | 显示全部楼层
wsm2003 发表于 2019-12-8 21:19
我这个是 cue+bin,直接读取cue,应该没问题!出错有什么提示? 对了你没有改文件名吧?
...

有改兩個黨名改一樣
因為psv 目錄要自己寫
省時間的方式 直接跟 前一個遊戲改一樣名字就好
惡魔成原本就有所以檔名一樣 可以不用編輯目錄

他就 顯示按確定 cd讀取畫面 按確定 就沒動作了
正常應該是黑頻進遊戲


還是那兩個檔名都不能改??
限定一定要那樣??

謝謝
Akumajou_Dracula_X_-_Chi_no_Rinne_(NTSC-J)_[KMCD3005].cue
Akumajou_Dracula_X_-_Chi_no_Rinne_(NTSC-J)_[KMCD3005].bin
轉檔後bin改成
Akumajou_Dracula_X_-_Chi_no_Rinne_(NTSC-J)_[KMCD3005].iso


回复 支持 反对

使用道具 举报

该用户从未签到

发表于 2019-12-8 22:28:01 | 显示全部楼层
安德烈斯 发表于 2019-12-8 19:35
大大你有
iso版的嗎
我要怎把bin檔轉回檔轉回去iso

试一下 ultraiso 转镜像格式,bin 2 iso

但是核心 “Beetle PCE Fast” 是支持 bin 的

  1. display_name = "NEC - PC Engine / CD (Beetle PCE FAST)"
  2. authors = "Mednafen Team"
  3. supported_extensions = "pce|cue|ccd|iso|img|bin|chd"
  4. corename = "Beetle PCE Fast"
  5. manufacturer = "NEC"
  6. categories = "Emulator"
  7. systemname = "PC Engine/PCE-CD"
  8. systemid = "pc_engine"
  9. database = "NEC - PC Engine - TurboGrafx 16|NEC - PC Engine CD - TurboGrafx-CD"
  10. license = "GPLv2"
  11. permissions = ""
  12. display_version = "v0.9.38.7"
  13. supports_no_game = "false"
  14. firmware_count = 4
  15. firmware0_desc = "syscard3.pce (PCE-CD BIOS)"
  16. firmware0_path = "syscard3.pce"
  17. firmware0_opt = "true"
  18. firmware1_desc = "syscard2.pce (PCE-CD BIOS)"
  19. firmware1_path = "syscard2.pce"
  20. firmware1_opt = "true"
  21. firmware2_desc = "syscard1.pce (PCE-CD BIOS)"
  22. firmware2_path = "syscard1.pce"
  23. firmware2_opt = "true"
  24. firmware3_desc = "gexpress.pce (PCE-CD BIOS)"
  25. firmware3_path = "gexpress.pce"
  26. firmware3_opt = "true"
  27. notes = "(!) syscard3.pce (md5): 38179df8f4ac870017db21ebcbf53114|[i] For cue files track type use:|[i] OGG for ogg files|[i] WAVE for wav files|[i] BINARY for iso files"
复制代码



回复 支持 反对

使用道具 举报

签到天数: 148 天

[LV.7]常住居民III

 楼主| 发表于 2019-12-8 22:29:06 | 显示全部楼层
本帖最后由 wsm2003 于 2019-12-8 22:31 编辑
安德烈斯 发表于 2019-12-8 22:15
有改兩個黨名改一樣
因為psv 目錄要自己寫
省時間的方式 直接跟 前一個遊戲改一樣名字就好

不要改镜像名,否则出错!

你动了文件名,我原有的名字是什么样的就是什么样!

Akumajou_Dracula_X_-_Chi_no_Rinne_(NTSC-J)_[KMCD3005] Hack BY wsm2003.bin
Akumajou_Dracula_X_-_Chi_no_Rinne_(NTSC-J)_[KMCD3005] Hack BY wsm2003.cue


回复 支持 反对

使用道具 举报

该用户从未签到

发表于 2019-12-8 22:38:37 | 显示全部楼层
wsm2003 发表于 2019-12-8 22:29
不要改镜像名,否则出错!

你动了文件名,我原有的名字是什么样的就是什么样!

按他的要求,把 Akumajou_Dracula_X_-_Chi_no_Rinne_(NTSC-J)_[KMCD3005].cue 改成这样应该也没问题

  1. FILE "Akumajou_Dracula_X_-_Chi_no_Rinne_(NTSC-J)_[KMCD3005].bin" BINARY
  2.   TRACK 01 AUDIO
  3.     INDEX 01 00:00:00
  4.   TRACK 02 MODE1/2352
  5.     PREGAP 00:03:00
  6.     INDEX 01 00:48:65
  7.   TRACK 03 AUDIO
  8.     PREGAP 00:02:00
  9.     INDEX 01 03:04:14
  10.   TRACK 04 AUDIO
  11.     INDEX 00 04:48:48
  12.     INDEX 01 04:50:48
  13.   TRACK 05 AUDIO
  14.     INDEX 00 05:51:67
  15.     INDEX 01 05:53:67
  16.   TRACK 06 AUDIO
  17.     INDEX 00 07:28:09
  18.     INDEX 01 07:30:09
  19.   TRACK 07 AUDIO
  20.     INDEX 00 08:51:61
  21.     INDEX 01 08:53:61
  22.   TRACK 08 AUDIO
  23.     INDEX 00 09:56:35
  24.     INDEX 01 09:58:35
  25.   TRACK 09 AUDIO
  26.     INDEX 00 12:54:60
  27.     INDEX 01 12:56:60
  28.   TRACK 10 AUDIO
  29.     INDEX 00 14:38:28
  30.     INDEX 01 14:40:28
  31.   TRACK 11 AUDIO
  32.     INDEX 00 17:19:05
  33.     INDEX 01 17:21:05
  34.   TRACK 12 AUDIO
  35.     INDEX 00 19:00:58
  36.     INDEX 01 19:02:58
  37.   TRACK 13 AUDIO
  38.     INDEX 00 21:31:18
  39.     INDEX 01 21:33:18
  40.   TRACK 14 AUDIO
  41.     INDEX 00 23:58:69
  42.     INDEX 01 24:00:69
  43.   TRACK 15 AUDIO
  44.     INDEX 00 27:38:51
  45.     INDEX 01 27:40:51
  46.   TRACK 16 AUDIO
  47.     INDEX 00 30:04:10
  48.     INDEX 01 30:06:10
  49.   TRACK 17 AUDIO
  50.     INDEX 00 33:19:56
  51.     INDEX 01 33:21:56
  52.   TRACK 18 AUDIO
  53.     INDEX 00 34:49:29
  54.     INDEX 01 34:51:29
  55.   TRACK 19 AUDIO
  56.     INDEX 00 36:31:49
  57.     INDEX 01 36:33:49
  58.   TRACK 20 AUDIO
  59.     INDEX 00 38:31:50
  60.     INDEX 01 38:33:50
  61.   TRACK 21 AUDIO
  62.     INDEX 00 42:33:12
  63.     INDEX 01 42:35:12
  64.   TRACK 22 MODE1/2352
  65.     PREGAP 00:03:00
  66.     INDEX 01 46:48:62
复制代码



回复 支持 反对

使用道具 举报

签到天数: 15 天

[LV.4]偶尔看看III

发表于 2019-12-8 22:41:49 | 显示全部楼层
wsm2003 发表于 2019-12-8 22:29
不要改镜像名,否则出错!

你动了文件名,我原有的名字是什么样的就是什么样!

我等等試看看
因為原本舊檔 目錄是那樣 想說直接 沿用比較方便 也比較不會打錯
回复 支持 反对

使用道具 举报

签到天数: 57 天

[LV.5]常住居民I

发表于 2019-12-8 22:47:08 | 显示全部楼层
感谢分享,收下了
回复 支持 反对

使用道具 举报

签到天数: 148 天

[LV.7]常住居民III

 楼主| 发表于 2019-12-8 23:47:43 | 显示全部楼层
taoenwen 发表于 2019-12-8 22:38
按他的要求,把 Akumajou_Dracula_X_-_Chi_no_Rinne_(NTSC-J)_[KMCD3005].cue 改成这样应该 ...

是的,这样可以解决!
回复 支持 反对

使用道具 举报

您需要登录后才可以回帖 登录 | 注册

本版积分规则

小黑屋|手机版|Archiver|琵琶行论坛 ( 赣ICP备12000882号 )

GMT+8, 2020-2-26 16:00 , Processed in 0.022894 second(s), 6 queries , Gzip On, MemCached On.

Powered by Discuz! X3.4

Copyright © 2001-2020, Tencent Cloud.

快速回复 返回顶部 返回列表