琵琶行论坛

 找回密码
 注册
每日签到论坛FTP使用教学领取红包(开放!)论坛FTP搜索引擎
查看: 1790|回复: 2

MGS_PW_HD_EDITION_ストーリートレイラー

[复制链接]

签到天数: 7 天

[LV.3]偶尔看看II

发表于 2011-11-5 23:06:57 | 显示全部楼层 |阅读模式
本帖最后由 ∮☆正树★ 于 2011-11-5 23:26 编辑

[wmv]http://file.ppxbbs.com/news/masaki/VIDEO/MGS_PW_HD_EDITION_STORYTRAILER.wmv[/wmv]

Video
ID                                       : 2
Format                                   : VC-1
Format profile                           : MP@ML
Codec ID                                 : WMV3
Codec ID/Info                            : Windows Media Video 9
Codec ID/Hint                            : WMV3
Description of the codec                 : Windows Media Video 9 - Professional
Duration                                 : 9mn 22s
Bit rate mode                            : Constant
Bit rate                                 : 1 500 Kbps
Width                                    : 720 pixels
Height                                   : 480 pixels
Display aspect ratio                     : 3:2
Frame rate                               : 30.000 fps
Standard                                 : NTSC
Bit depth                                : 8 bits
Scan type                                : Progressive
Compression mode                         : Lossy
Bits/(Pixel*Frame)                       : 0.145
Stream size                              : 101 MiB
Language                                 : Chinese (CN)
Audio
ID                                       : 1
Format                                   : WMA
Format version                           : Version 2
Codec ID                                 : 161
Codec ID/Info                            : Windows Media Audio
Description of the codec                 : Windows Media Audio 9.2 -  64 kbps, 44 kHz, stereo 1-pass CBR
Duration                                 : 9mn 22s
Bit rate mode                            : Constant
Bit rate                                 : 64.0 Kbps
Channel(s)                               : 2 channels
Sampling rate                            : 44.1 KHz
Bit depth                                : 16 bits
Stream size                              : 4.30 MiB (4%)
Language                                 : Chinese (CN)
游客,如果您要查看本帖隐藏内容请回复

签到天数: 1056 天

[LV.10]以坛为家III

发表于 2011-11-6 06:34:25 | 显示全部楼层

Thanks alot.
回复 支持 反对

使用道具 举报

签到天数: 68 天

[LV.6]常住居民II

发表于 2011-11-6 21:58:11 | 显示全部楼层
回复 支持 反对

使用道具 举报

您需要登录后才可以回帖 登录 | 注册

本版积分规则

小黑屋|手机版|Archiver|琵琶行论坛 ( 赣ICP备12000882号 )

GMT+8, 2019-11-18 00:09 , Processed in 0.019130 second(s), 9 queries , Gzip On, MemCached On.

Powered by Discuz! X3.4

© 2001-2017 Comsenz Inc.

快速回复 返回顶部 返回列表